PDA

View Full Version : Thread Comparativa CPU codifica x265 (StaxRip)


fpezzino1
15-04-2021, 18:58
Un saluto a tutti gli amici del forum!
Apro questo piccolo thread per postare i risultati prestazionali di encoding video x265 delle CPU sotto riportate.
Con l'occasione ringrazio i ragazzi del forum che hanno contribuito alla raccolta dati effettuando il test necessario.
Chiunque volesse contribuire alla raccolta dati effettuando il test con la CPU in proprio possesso è, naturalmente, libero di farlo;
basta solo inviarmi un messaggio in privato qui sul forum (questo per evitare di andare OT).

Di seguito lo screen con i risultati comparativi delle CPU testate:

https://i.postimg.cc/Kz8mMzdX/Stax-Rip-Comparativa-CPU.jpg

Sarebbe utile a beneficio di tutti, a mio avviso, poter avere anche i test delle seguenti CPU:
1. AMD Ryzen 3800X Vs. 5800X
2. AMD Ryzen 3900X Vs. 5900X
3. INTEL Core i7-11700K (AVX2) / AVX512
4. INTEL Core i9-11900K (AVX2) / AVX512

Grazie a tutti! :)

***********************************
--- NEWS ---
Ho aggiornato il programma per il test di codifica aggiungendo un TEMPLATE per AVX512 (Per processori INTEL 11th Gen);
il profilo va caricato manualmente subito dopo l'avvio del programma; a quel punto si potrà avviare il test sfruttando le istruzioni AVX512 (se supportate dalla vostra CPU).
***********************************

Gyammy85
15-04-2021, 21:06
L'ho scaricato, come si fa a benchare?

fpezzino1
16-04-2021, 08:35
L'ho scaricato, come si fa a benchare?

Ciao Gyammy85, ti ho risposto in privato.
Disinstalla la versione che hai scaricato insieme agli altri pacchetti (Python, ecc...),
perchè per fare lo stesso test, serve usare la stessa versione che hanno usato gli altri ragazzi, pena risultati alterati.
Per qualunque cosa, contattami pure in PVT. ;)
Grazie.

Gyammy85
16-04-2021, 09:22
Ciao Gyammy85, ti ho risposto in privato.
Disinstalla la versione che hai scaricato insieme agli altri pacchetti (Python, ecc...),
perchè per fare lo stesso test, serve usare la stessa versione che hanno usato gli altri ragazzi, pena risultati alterati.
Per qualunque cosa, contattami pure in PVT. ;)
Grazie.

Boh ho scaricato solo il bench, sono bianco su queste cose

Nautilu$
16-04-2021, 17:03
Ho visto che hai segnato la frequenza sui ryzen, ma forse credo sia giusto segnalare se è in PBO (e quale limite PPT) o frequenza fissa su tutti i core....
Il test fatto da me del 3950x è con PBO (ppt 165w). Durante il test la frequenza varia di continuo e abbastanza diversa anche tra il primo e 2° passaggio... quindi segnare 4,2Ghz è molto generico....
Se ad esempio nel 2° passaggio la frequenza si è mantenuta più bassa dei 4,2Ghz , o nel 1° passaggio magari più alta, il risultato potrebbe variare abbastanza rispetto magari a un 4,2Ghz fisso..... senza contare anche il fatto che, con overclock fisso, i risultati con sfruttamento di % CPU alta sono più alti a prescindere rispetto al PBO.

Credo quindi che segnalare PBO (e limite PPT massimo usato) sia la cosa più corretta.

fpezzino1
17-04-2021, 15:28
Ho visto che hai segnato la frequenza sui ryzen, ma forse credo sia giusto segnalare se è in PBO (e quale limite PPT) o frequenza fissa su tutti i core....
Il test fatto da me del 3950x è con PBO (ppt 165w). Durante il test la frequenza varia di continuo e abbastanza diversa anche tra il primo e 2° passaggio... quindi segnare 4,2Ghz è molto generico....
Se ad esempio nel 2° passaggio la frequenza si è mantenuta più bassa dei 4,2Ghz , o nel 1° passaggio magari più alta, il risultato potrebbe variare abbastanza rispetto magari a un 4,2Ghz fisso..... senza contare anche il fatto che, con overclock fisso, i risultati con sfruttamento di % CPU alta sono più alti a prescindere rispetto al PBO.

Credo quindi che segnalare PBO (e limite PPT massimo usato) sia la cosa più corretta.

Ciao!
In effetti non avendo ryzen sul mio PC, non mi sarebbe mai venuto in mente!
Ti ringrazio del suggerimento e provvedo, intanto, ad aggiungere i tuoi dati di PBO/PPT;
resto in attesa di riscontro dai ragazzi con CPU Ryzen per i valori di PBO/PPT delle CPU già inserite in tabella comparativa.
Grazie mille del suggerimento! :)

Gyammy85
18-04-2021, 16:49
https://i.postimg.cc/qqXstCK0/2021-04-18.png (https://postimages.org/)

Ecco il mio, Ryzen 5600X, PBO attivo, intorno ai 4,6 GHz allcore
Segna 9,17, ma in realtà è come se fosse 9,18, è passato a 9,17 quando ho scattato lo screen

luke@
18-04-2021, 17:07
Mi aggiungo anche per flaggare il thread su tapatalk

Sto scaricando i files necessari e a breve editerò il post con i risultato.

I test saranno fatti con un 5600x + 2x8 ddr4 3200mhz cl16 in xmp su una Asus A520M-K, e il resto a default quindi presumo con PBO disattivato.

L'unica cosa che ho attivato di extra dal bios per ora è la virtualizzazione.

fpezzino1
18-04-2021, 18:47
Ecco il mio, Ryzen 5600X, PBO attivo, intorno ai 4,6 GHz allcore
Segna 9,17, ma in realtà è come se fosse 9,18, è passato a 9,17 quando ho scattato lo screen

Ciao Gyammy85, ti ho risposto in pvt.
Per quanto riguarda il PBO, potresti fornirmi anche il valore di PPT?
Grazie mille :)

fpezzino1
18-04-2021, 18:56
Mi aggiungo anche per flaggare il thread su tapatalk

Sto scaricando i files necessari e a breve editerò il post con i risultato.

I test saranno fatti con un 5600x + 2x8 ddr4 3200mhz cl16 in xmp su una Asus A520M-K, e il resto a default quindi presumo con PBO disattivato.

L'unica cosa che ho attivato di extra dal bios per ora è la virtualizzazione.

Ciao luke e grazie per esserti unito al thread! :D
Si, se hai lasciato tutto a default non avrai il PBO attivo.
Quello che avrai abilitato saranno le istruzione per il supporto alla virtualizzazione per programmi come VMware / VirtualBox e simili.

Gyammy85
18-04-2021, 19:59
Ciao Gyammy85, ti ho risposto in pvt.
Per quanto riguarda il PBO, potresti fornirmi anche il valore di PPT?
Grazie mille :)

Ho messo solo il pbo, tutto il resto è a def, non ho toccato niente

Nautilu$
18-04-2021, 21:07
Ho messo solo il pbo, tutto il resto è a def, non ho toccato niente

Quindi avrai ppt su auto...tocca vedere a quanto lo fa arrivare la tua piastra madre...
Basta che aprì Ryzen Master mentre gira il test e vedi a quanti watt massimi arriva la cpu...

luke@
19-04-2021, 00:22
Log file:

-------------------------- System Environment --------------------------

StaxRip : 1.8.2.0
Windows : Windows 10 Pro 2009
Language : Italian (Italy)
CPU : AMD Ryzen 5 5600X 6-Core Processor
GPU : NVIDIA GeForce GTX 1060 6GB
Resolution : 1920 x 1080
DPI : 96

------------------------ MediaInfo Source File ------------------------

E:\Download\000-TEST Originale [4K HDR - DTS - SubPGS].mkv

General
Complete name : E:\Download\000-TEST Originale [4K HDR - DTS - SubPGS].mkv
Format : Matroska
Format version : Version 4 / Version 2
File size : 2.68 GiB
Duration : 8 min 50 s
Overall bit rate : 43.4 Mb/s
Movie name : Alita - Angelo della battaglia
Encoded date : UTC 2019-10-30 15:20:34
Writing application : mkvmerge v38.0.0 ('The Silent Type') 64-bit
Writing library : libebml v1.3.9 + libmatroska v1.5.2

Video
ID : 1
Format : HEVC
Format/Info : High Efficiency Video Coding
Format profile : Main 10@L5.1@High
Codec ID : V_MPEGH/ISO/HEVC
Duration : 8 min 50 s
Bit rate : 42.7 Mb/s
Width : 3 840 pixels
Height : 2 160 pixels
Display aspect ratio : 16:9
Frame rate mode : Constant
Frame rate : 23.976 (24000/1001) FPS
Color space : YUV
Chroma subsampling : 4:2:0 (Type 2)
Bit depth : 10 bits
Bits/(Pixel*Frame) : 0.214
Stream size : 2.63 GiB (98%)
Title : Alita - Angelo della battaglia (2019)
Language : Italian
Default : No
Forced : No
Color range : Limited
Color primaries : BT.2020
Transfer characteristics : PQ
Matrix coefficients : BT.2020 non-constant
Mastering display color primaries : R: x=0.680000 y=0.320000, G: x=0.265000 y=0.690000, B: x=0.150000 y=0.060000, White point: x=0.312700 y=0.329000
Mastering display luminance : min: 0.0001 cd/m2, max: 1000.0000 cd/m2
Maximum Content Light Level : 737 cd/m2
Maximum Frame-Average Light Level : 130 cd/m2

Audio
ID : 2
Format : DTS
Format/Info : Digital Theater Systems
Mode : 16
Format, Endianness : Big
Codec ID : A_DTS
Duration : 8 min 50 s
Bit rate mode : Constant
Bit rate : 768 kb/s
Channel(s) : 6 channels
Channel positions : Front: L C R, Side: L R, LFE
Sampling rate : 48.0 kHz
Frame rate : 93.750 FPS (512 SPF)
Bit depth : 24 bits
Compression mode : Lossy
Delay relative to video : 10 ms
Stream size : 48.6 MiB (2%)
Title : Italiano DTS
Language : Italian
Default : Yes
Forced : No

Text
ID : 3
Format : PGS
Muxing mode : zlib
Codec ID : S_HDMV/PGS
Codec ID/Info : Picture based subtitle format used on BDs/HD-DVDs
Duration : 8 min 27 s
Bit rate : 20.2 kb/s
Count of elements : 164
Stream size : 1.22 MiB (0%)
Title : Italiano REGOLARE
Language : Italian
Default : Yes
Forced : No

----------------------- Indexing using ffmsindex -----------------------

"E:\Download\StaxRip Portable (V.1.8.2.0) (Custom Public - FILIPPO)\StaxRip1.8.2.0.x64\Apps\Plugins\both\ffms2\ffmsindex.exe" "E:\Download\000-TEST Originale [4K HDR - DTS - SubPGS].mkv" "E:\Download\000-TEST Originale [4K HDR - DTS - SubPGS]_temp\000-TEST Originale [4K HDR - DTS - SubPGS].ffindex"

Writing index... done.

Start: 21:34:49
End: 21:34:50
Duration: 00:00:01

-------------------------- VapourSynth Script --------------------------

import vapoursynth as vs
core = vs.get_core()
core.std.LoadPlugin(r"E:\Download\StaxRip Portable (V.1.8.2.0) (Custom Public - FILIPPO)\StaxRip1.8.2.0.x64\Apps\Plugins\both\ffms2\ffms2.dll")
clip = core.ffms2.Source(r"E:\Download\000-TEST Originale [4K HDR - DTS - SubPGS].mkv", cachefile = r"E:\Download\000-TEST Originale [4K HDR - DTS - SubPGS]_temp\000-TEST Originale [4K HDR - DTS - SubPGS].ffindex")
clip = core.std.Crop(clip, 0, 0, 276, 276)
clip.set_output()

-------------------------- Script Properties --------------------------

Source Frame Count : 12723
Source Frame Rate : 23.976024
Source Duration : 00:08:50.6550000
Target Frame Count : 12723
Target Frame Rate : 23.976024
Target Duration : 00:08:50.6550000

--------------- Video encoding using x265 3.2+6-7fa570e ---------------

"C:\Program Files (x86)\VapourSynth\core64\vspipe.exe" "E:\Download\000-TEST Originale [4K HDR - DTS - SubPGS]_temp\Download.vpy" - --y4m | "E:\Download\StaxRip Portable (V.1.8.2.0) (Custom Public - FILIPPO)\StaxRip1.8.2.0.x64\Apps\x265\x265.exe" --pass 1 --bitrate 23000 --profile main10 --level-idc 5.1 --output-depth 10 --vbv-bufsize 160000 --vbv-maxrate 160000 --no-slow-firstpass --master-display "G(13250,34500)B(7500,3000)R(34000,16000)WP(15635,16450)L(10000000,1)" --colorprim bt2020 --colormatrix bt2020nc --transfer smpte2084 --range limited --max-luma 1023 --max-cll "737,130" --hdr --hdr-opt --repeat-headers --hrd --aud --vui-timing-info --vui-hrd-info --min-keyint 24 --keyint 240 --no-open-gop --deblock -3:-3 --no-sao --no-strong-intra-smoothing --chromaloc 2 --sar 1 --frames 12723 --y4m --stats "E:\Download\000-TEST Originale [4K HDR - DTS - SubPGS]_temp\Download.stats" --output NUL -

y4m [info]: 3840x1608 fps 24000/1001 i420p10 sar 1:1 unknown frame count
raw [info]: output file: NUL
x265 [info]: HEVC encoder version 3.2+6-7fa570ead8d3
x265 [info]: build info [Windows][GCC 9.2.0][64 bit] 10bit
x265 [info]: using cpu capabilities: MMX2 SSE2Fast LZCNT SSSE3 SSE4.2 AVX FMA3 BMI2 AVX2
x265 [info]: Main 10 profile, Level-5.1 (High tier)
x265 [info]: Thread pool created using 12 threads
x265 [info]: Slices : 1
x265 [info]: frame threads / pool features : 3 / wpp(26 rows)
x265 [info]: Coding QT: max CU size, min CU size : 64 / 8
x265 [info]: Residual QT: max TU size, max depth : 32 / 1 inter / 1 intra
x265 [info]: ME / range / subpel / merge : dia / 57 / 2 / 1
x265 [info]: Keyframe min / max / scenecut / bias: 24 / 240 / 40 / 5.00
x265 [info]: Lookahead / bframes / badapt : 20 / 4 / 2
x265 [info]: b-pyramid / weightp / weightb : 1 / 1 / 0
x265 [info]: References / ref-limit cu / depth : 1 / off / on
x265 [info]: AQ: mode / str / qg-size / cu-tree : 2 / 1.0 / 32 / 1
x265 [info]: Rate Control / qCompress : ABR-23000 kbps / 0.60
x265 [info]: VBV/HRD buffer / max-rate / init : 160000 / 160000 / 0.900
x265 [info]: tools: rd=2 psy-rd=2.00 early-skip rskip signhide tmvp b-intra
x265 [info]: tools: fast-intra lslices=8 deblock(tC=-3:B=-3) stats-write
Output 12723 frames in 1488.09 seconds (8.55 fps)
x265 [info]: frame I: 117, Avg QP:10.61 kb/s: 73855.56
x265 [info]: frame P: 2758, Avg QP:11.93 kb/s: 45195.94
x265 [info]: frame B: 9848, Avg QP:15.67 kb/s: 16326.65
x265 [info]: Weighted P-Frames: Y:1.0% UV:0.9%
x265 [info]: consecutive B-frames: 5.0% 1.8% 4.6% 22.6% 65.9%
encoded 12723 frames in 1490.29s (8.54 fps), 23113.76 kb/s, Avg QP:14.81

Start: 21:36:04
End: 22:00:55
Duration: 00:24:50

--------- Video encoding second pass using x265 3.2+6-7fa570e ---------

"C:\Program Files (x86)\VapourSynth\core64\vspipe.exe" "E:\Download\000-TEST Originale [4K HDR - DTS - SubPGS]_temp\Download.vpy" - --y4m | "E:\Download\StaxRip Portable (V.1.8.2.0) (Custom Public - FILIPPO)\StaxRip1.8.2.0.x64\Apps\x265\x265.exe" --pass 2 --bitrate 23000 --profile main10 --level-idc 5.1 --output-depth 10 --vbv-bufsize 160000 --vbv-maxrate 160000 --no-slow-firstpass --master-display "G(13250,34500)B(7500,3000)R(34000,16000)WP(15635,16450)L(10000000,1)" --colorprim bt2020 --colormatrix bt2020nc --transfer smpte2084 --range limited --max-luma 1023 --max-cll "737,130" --hdr --hdr-opt --repeat-headers --hrd --aud --vui-timing-info --vui-hrd-info --min-keyint 24 --keyint 240 --no-open-gop --deblock -3:-3 --no-sao --no-strong-intra-smoothing --chromaloc 2 --sar 1 --frames 12723 --y4m --stats "E:\Download\000-TEST Originale [4K HDR - DTS - SubPGS]_temp\Download.stats" --output "E:\Download\000-TEST Originale [4K HDR - DTS - SubPGS]_temp\Download_out.hevc" -

y4m [info]: 3840x1608 fps 24000/1001 i420p10 sar 1:1 unknown frame count
raw [info]: output file: E:\Download\000-TEST Originale [4K HDR - DTS - SubPGS]_temp\Download_out.hevc
x265 [info]: HEVC encoder version 3.2+6-7fa570ead8d3
x265 [info]: build info [Windows][GCC 9.2.0][64 bit] 10bit
x265 [info]: using cpu capabilities: MMX2 SSE2Fast LZCNT SSSE3 SSE4.2 AVX FMA3 BMI2 AVX2
x265 [info]: Main 10 profile, Level-5.1 (High tier)
x265 [info]: Thread pool created using 12 threads
x265 [info]: Slices : 1
x265 [info]: frame threads / pool features : 3 / wpp(26 rows)
x265 [info]: Coding QT: max CU size, min CU size : 64 / 8
x265 [info]: Residual QT: max TU size, max depth : 32 / 1 inter / 1 intra
x265 [info]: ME / range / subpel / merge : hex / 57 / 2 / 3
x265 [info]: Keyframe min / max / scenecut / bias: 24 / 240 / 40 / 5.00
x265 [info]: Lookahead / bframes / badapt : 20 / 4 / 2
x265 [info]: b-pyramid / weightp / weightb : 1 / 1 / 0
x265 [info]: References / ref-limit cu / depth : 3 / off / on
x265 [info]: AQ: mode / str / qg-size / cu-tree : 2 / 1.0 / 32 / 1
x265 [info]: Rate Control / qCompress : ABR-23000 kbps / 0.60
x265 [info]: VBV/HRD buffer / max-rate / init : 160000 / 160000 / 0.900
x265 [info]: tools: rd=3 psy-rd=2.00 early-skip rskip signhide tmvp b-intra
x265 [info]: tools: lslices=8 deblock(tC=-3:B=-3) stats-read
Output 12723 frames in 2491.56 seconds (5.11 fps)
x265 [info]: frame I: 117, Avg QP:10.06 kb/s: 78257.67
x265 [info]: frame P: 2758, Avg QP:12.22 kb/s: 43825.88
x265 [info]: frame B: 9848, Avg QP:15.98 kb/s: 16482.36
x265 [info]: Weighted P-Frames: Y:0.9% UV:0.9%
x265 [info]: consecutive B-frames: 5.0% 1.8% 4.6% 22.6% 65.9%
encoded 12723 frames in 2496.35s (5.10 fps), 22977.77 kb/s, Avg QP:15.11

Start: 22:00:55
End: 22:42:32
Duration: 00:41:37

General
Complete name : E:\Download\000-TEST Originale [4K HDR - DTS - SubPGS]_temp\Download_out.hevc
Format : HEVC
Format/Info : High Efficiency Video Coding
File size : 1.42 GiB
Writing library : x265 3.2+6-7fa570ead8d3:[Windows][GCC 9.2.0][64 bit] 10bit

Video
Format : HEVC
Format/Info : High Efficiency Video Coding
Format profile : Main 10@L5.1@High
Width : 3 840 pixels
Height : 1 608 pixels
Display aspect ratio : 2.40:1
Frame rate : 23.976 (24000/1001) FPS
Color space : YUV
Chroma subsampling : 4:2:0 (Type 2)
Bit depth : 10 bits
Writing library : x265 3.2+6-7fa570ead8d3:[Windows][GCC 9.2.0][64 bit] 10bit
Color range : Limited
Color primaries : BT.2020
Transfer characteristics : PQ
Matrix coefficients : BT.2020 non-constant
Mastering display color primaries : R: x=0.680000 y=0.320000, G: x=0.265000 y=0.690000, B: x=0.150000 y=0.060000, White point: x=0.312700 y=0.329000
Mastering display luminance : min: 0.0001 cd/m2, max: 1000.0000 cd/m2
Maximum Content Light Level : 737 cd/m2
Maximum Frame-Average Light Level : 130 cd/m2

--------------------- Muxing using mkvmerge 38.0.0 ---------------------

"E:\Download\StaxRip Portable (V.1.8.2.0) (Custom Public - FILIPPO)\StaxRip1.8.2.0.x64\Apps\MKVToolNix\mkvmerge.exe" -o E:\Download\Download.mkv --language 0:ita "E:\Download\000-TEST Originale [4K HDR - DTS - SubPGS]_temp\Download_out.hevc" --no-video --no-subs --no-chapters --no-attachments --no-track-tags --no-global-tags --audio-tracks 1 --language 1:ita --track-name "1:Italiano DTS" --default-track 1:1 --forced-track 1:0 "E:\Download\000-TEST Originale [4K HDR - DTS - SubPGS].mkv" --no-audio --no-video --no-chapters --no-attachments --no-track-tags --no-global-tags --subtitle-tracks 2 --forced-track 2:0 --default-track 2:1 --language 2:ita --track-name "2:Italiano REGOLARE" "E:\Download\000-TEST Originale [4K HDR - DTS - SubPGS].mkv" --title "Alita - Angelo della battaglia" --global-tags "E:\Download\000-TEST Originale [4K HDR - DTS - SubPGS]_temp\Download_tags.xml" --ui-language en

mkvmerge v38.0.0 ('The Silent Type') 64-bit
'E:\Download\000-TEST Originale [4K HDR - DTS - SubPGS]_temp\Download_out.hevc': Using the demultiplexer for the format 'HEVC/H.265'.
'E:\Download\000-TEST Originale [4K HDR - DTS - SubPGS].mkv': Using the demultiplexer for the format 'Matroska'.
'E:\Download\000-TEST Originale [4K HDR - DTS - SubPGS].mkv': Using the demultiplexer for the format 'Matroska'.
'E:\Download\000-TEST Originale [4K HDR - DTS - SubPGS]_temp\Download_out.hevc' track 0: Using the output module for the format 'HEVC/H.265 (unframed)'.
'E:\Download\000-TEST Originale [4K HDR - DTS - SubPGS].mkv' track 1: Using the output module for the format 'DTS'.
'E:\Download\000-TEST Originale [4K HDR - DTS - SubPGS].mkv' track 2: Using the output module for the format 'HDMV PGS'.
The file 'E:\Download\Download.mkv' has been opened for writing.
'E:\Download\000-TEST Originale [4K HDR - DTS - SubPGS]_temp\Download_out.hevc' track 0: Extracted the aspect ratio information from the HEVC video data and set the display dimensions to 3840/1608.
The cue entries (the index) are being written...
Multiplexing took 14 seconds.

Start: 22:42:32
End: 22:42:46
Duration: 00:00:13

General
Complete name : E:\Download\Download.mkv
Format : Matroska
Format version : Version 4 / Version 2
File size : 1.47 GiB
Duration : 8 min 50 s
Overall bit rate : 23.8 Mb/s
Movie name : Alita - Angelo della battaglia
Encoded date : UTC 2021-04-18 19:42:32
Writing application : mkvmerge v38.0.0 ('The Silent Type') 64-bit
Writing library : libebml v1.3.9 + libmatroska v1.5.2

Video
ID : 1
Format : HEVC
Format/Info : High Efficiency Video Coding
Format profile : Main 10@L5.1@High
Codec ID : V_MPEGH/ISO/HEVC
Duration : 8 min 50 s
Bit rate : 23.0 Mb/s
Width : 3 840 pixels
Height : 1 608 pixels
Display aspect ratio : 2.40:1
Frame rate mode : Constant
Frame rate : 23.976 (24000/1001) FPS
Color space : YUV
Chroma subsampling : 4:2:0 (Type 2)
Bit depth : 10 bits
Bits/(Pixel*Frame) : 0.155
Stream size : 1.42 GiB (97%)
Writing library : x265 3.2+6-7fa570ead8d3:[Windows][GCC 9.2.0][64 bit] 10bit
Language : Italian
Default : Yes
Forced : No
Color range : Limited
Color primaries : BT.2020
Transfer characteristics : PQ
Matrix coefficients : BT.2020 non-constant
Mastering display color primaries : R: x=0.680000 y=0.320000, G: x=0.265000 y=0.690000, B: x=0.150000 y=0.060000, White point: x=0.312700 y=0.329000
Mastering display luminance : min: 0.0001 cd/m2, max: 1000.0000 cd/m2
Maximum Content Light Level : 737 cd/m2
Maximum Frame-Average Light Level : 130 cd/m2

Audio
ID : 2
Format : DTS
Format/Info : Digital Theater Systems
Mode : 16
Format, Endianness : Big
Codec ID : A_DTS
Duration : 8 min 50 s
Bit rate mode : Constant
Bit rate : 768 kb/s
Channel(s) : 6 channels
Channel positions : Front: L C R, Side: L R, LFE
Sampling rate : 48.0 kHz
Frame rate : 93.750 FPS (512 SPF)
Bit depth : 24 bits
Compression mode : Lossy
Delay relative to video : 10 ms
Stream size : 48.6 MiB (3%)
Title : Italiano DTS
Language : Italian
Default : Yes
Forced : No

Text
ID : 3
Format : PGS
Muxing mode : zlib
Codec ID : S_HDMV/PGS
Codec ID/Info : Picture based subtitle format used on BDs/HD-DVDs
Duration : 8 min 27 s
Bit rate : 20.2 kb/s
Count of elements : 164
Stream size : 1.22 MiB (0%)
Title : Italiano REGOLARE
Language : Italian
Default : Yes
Forced : No

----------------------------- Job Complete -----------------------------

Start: 21:36:03
End: 22:42:47
Duration: 01:06:43


Screen 1 Statistics:
https://i.imgur.com/qFIxp8V.png 8.59 fps al 49.8%

Screen 2 Coding:
https://i.imgur.com/bBUag8Z.png 5.05 fps 51.3%

La cpu ha "rullato" a 4ghz in average
Max a quasi 4.6

fpezzino1
20-04-2021, 19:50
La cpu ha "rullato" a 4ghz in average
Max a quasi 4.6

Ciao luke@!
Come clock della CPU ho messo una media empirica di 4,3GHz.
Grazie per aver contribuito! ;)

Nautilu$
20-04-2021, 22:06
....Max a quasi 4.6
ma quello non lo devi guardare proprio!:D
Magari sarà andato a quella frequenza (su 1 core?) ogni tanto, PRIMA di iniziare il test, oppure DOPO da fine del test.......
Dovevi riuscire a vedere la frequenza corrente durante il test, magari 2 volte: durante il primo passaggio e durante il secondo.
Se la media ti segna 4GHz , probabilmente potrebbe essere quella durante il test (visto la durata), anche se mi pare che anche durante l'uso delle istruzioni avx2 (sicuramente usate per la conversione), il 5600x faccia un po' meglio, ma potrei sbagliarmi..... verifica magari durante OCCT +avx2 .
Comunque buon punteggio! Si avvicina al 3700x...

luke@
20-04-2021, 23:26
ma quello non lo devi guardare proprio!:D
Magari sarà andato a quella frequenza (su 1 core?) ogni tanto, PRIMA di iniziare il test, oppure DOPO da fine del test.......
Dovevi riuscire a vedere la frequenza corrente durante il test, magari 2 volte: durante il primo passaggio e durante il secondo.
Se la media ti segna 4GHz , probabilmente potrebbe essere quella durante il test (visto la durata), anche se mi pare che anche durante l'uso delle istruzioni avx2 (sicuramente usate per la conversione), il 5600x faccia un po' meglio, ma potrei sbagliarmi..... verifica magari durante OCCT +avx2 .
Comunque buon punteggio! Si avvicina al 3700x...Sì, ero davanti al PC per il test, e stava a 4 in current

Inviato dal mio FIG-LX1 utilizzando Tapatalk

Gyammy85
21-04-2021, 08:56
Ecco il mio first pass rivisto

https://i.postimg.cc/hPKxB2R4/2021-04-21.png (https://postimages.org/)

PBO attivo e tutto il resto a def, intorno ai 4,6 GHz

fpezzino1
22-04-2021, 08:43
Sì, ero davanti al PC per il test, e stava a 4 in current

Inviato dal mio FIG-LX1 utilizzando Tapatalk

Ciao luke@!
Quanto suggerito da Nautilu$ è assolutamente corretto! :D
Dobbiamo prendere il valore medio. Quindi correggerò la velocità a 4GHz.
Eventualmente, se dopo ulteriori test la velocità media è > 4GHz, la ri-modificherò di conseguenza aggiornandola in tabella.

fpezzino1
22-04-2021, 08:50
Ecco il mio first pass rivisto

PBO attivo e tutto il resto a def, intorno ai 4,6 GHz

Ciao Gyammy85!
Gentilmente, puoi fare il test completo come descritto nella guida PDF?
Appena avrai fatto, mandami pure tutto in PVT e inserisco in tabella i tuoi risultati.
Come già detto prima, riesci durante i test a tenere attivo il programma Ryzen Master
e vedere quanti watt segna come consumi max la CPU e il clock medio su tutti i core?
Ovviamente, con PBO attivo (quindi hai fatto Overclock della CPU), altrimenti non serve vedere il consumo max della CPU (Il clock, magari si).

Grazie ;)